<?xml version="1.0" standalone="no"?>
<!DOCTYPE svg PUBLIC "-//W3C//DTD SVG 1.1//EN" "http://www.w3.org/Graphics/SVG/1.1/DTD/svg11.dtd">
<svg xmlns="http://www.w3.org/2000/svg">
<defs >
<font id="Montserrat" horiz-adv-x="654" ><font-face
    font-family="Montserrat SemiBold"
    units-per-em="1000"
    panose-1="0 0 7 0 0 0 0 0 0 0"
    ascent="968"
    descent="-251"
    alphabetic="0" />
<glyph unicode=" " glyph-name="space" horiz-adv-x="276" />
<glyph unicode="!" glyph-name="exclam" horiz-adv-x="278" d="M66 700H214L189 232H90L66 700ZM105 -7T82 15T59 71Q59 104 82 126T140 148Q174 148 196 126T219 71Q219 38 197 16T140 -7Q105 -7 82 15Z" />
<glyph unicode="&quot;" glyph-name="quotedbl" horiz-adv-x="413" d="M56 700H164L155 423H64L56 700ZM249 700H357L348 423H257L249 700Z" />
<glyph unicode="#" glyph-name="numbersign" horiz-adv-x="711" d="M520 261H655V170H509L488 0H397L418 170H249L228 0H137L158 170H23V261H169L192 439H57V530H203L224 700H315L294 530H462L483 700H574L553 530H687L688 439H542L520 261ZM429 261L451 439H283L260
261H429Z" />
<glyph unicode="$" glyph-name="dollar" horiz-adv-x="629" d="M594 117T535 61T362 -8V-120H280V-9Q206 -4 140 18T35 74L80 175Q117 145 170 125T280 99V299Q209 316 162 336T82 396T50 501Q50 582 109 639T280 707V820H362V709Q418 706 471 690T565 648L524
547Q448 591 362 601V399Q434 382 481 362T561 303T594 198Q594 117 535 61ZM179 474T205 454T280 420V598Q229 590 204 566T179 507Q179 474 205 454ZM415 109T440 132T466 189Q466 223 439 243T362 278V101Q415 109 440 132Z" />
<glyph unicode="%" glyph-name="percent" horiz-adv-x="860" d="M125 323T79 376T33 515Q33 601 79 654T200 707Q275 707 321 655T368 515Q368 428 322 376T200 323Q125 323 79 376ZM620 700H718L240 0H142L620 700ZM241 393T263 425T286 515Q286 573 264 605T200
637Q161 637 138 605T114 515Q114 458 137 426T200 393Q241 393 263 425ZM584 -7T538 46T492 185Q492 271 538 324T659 377Q734 377 780 324T827 185Q827 99 781 46T659 -7Q584 -7 538 46ZM699 63T722 95T745 185Q745 242 722 274T659 307Q619 307 596 275T573
185Q573 127 596 95T659 63Q699 63 722 95Z" />
<glyph unicode="&amp;" glyph-name="ampersand" horiz-adv-x="706" d="M619 -11L531 74Q433 -10 296 -10Q223 -10 165 14T74 80T41 177Q41 242 79 291T203 389Q161 431 143 467T125 543Q125 617 180 662T328 708Q413 708 464 667T515 554Q515 500 482 458T372
373L523 229Q548 278 562 347L663 314Q643 221 600 154L688 70L619 -11ZM287 619T263 599T239 545Q239 521 252 500T302 441Q362 474 385 498T409 552Q409 583 388 601T328 619Q287 619 263 599ZM392 92T457 145L272 322Q212 289 188 259T163 190Q163 146 202 119T305
92Q392 92 457 145Z" />
<glyph unicode="&apos;" glyph-name="quotesingle" horiz-adv-x="220" d="M56 700H164L155 423H64L56 700Z" />
<glyph unicode="(" glyph-name="parenleft" horiz-adv-x="347" d="M147 -103T116 17T84 274Q84 411 115 531T206 742H325Q264 634 236 520T207 274Q207 143 235 29T325 -194H206Q147 -103 116 17Z" />
<glyph unicode=")" glyph-name="parenright" horiz-adv-x="348" d="M22 -194Q83 -86 112 29T141 274Q141 404 112 519T22 742H141Q200 653 231 533T263 274Q263 136 232 17T141 -194H22Z" />
<glyph unicode="*" glyph-name="asterisk" horiz-adv-x="416" d="M286 550L400 487L361 419L245 487L246 358H170L171 486L56 419L16 487L131 550L16 613L56 682L171 614L170 742H246L245 613L361 682L400 613L286 550Z" />
<glyph unicode="+" glyph-name="plus" horiz-adv-x="590" d="M526 300H349V125H242V300H65V400H242V575H349V400H526V300Z" />
<glyph unicode="," glyph-name="comma" horiz-adv-x="244" d="M158 159T181 136T204 76Q204 60 200 43T181 -10L130 -151H49L89 2Q67 11 55 30T42 76Q42 113 65 136T123 159Q158 159 181 136Z" />
<glyph unicode="-" glyph-name="hyphen" horiz-adv-x="385" d="M55 330H330V226H55V330Z" />
<glyph unicode="." glyph-name="period" horiz-adv-x="244" d="M88 -7T64 16T40 76Q40 113 63 136T122 159Q157 159 180 136T204 76Q204 40 180 17T122 -7Q88 -7 64 16Z" />
<glyph unicode="/" glyph-name="slash" horiz-adv-x="371" d="M300 842H412L82 -100H-30L300 842Z" />
<glyph unicode="0" glyph-name="zero" horiz-adv-x="673" d="M252 -10T186 32T82 156T44 350Q44 462 82 543T186 667T336 710Q420 710 486 668T591 544T629 350Q629 238 591 157T487 33T336 -10Q252 -10 186 32ZM411 103T454 165T498 350Q498 473 455 535T336
597Q262 597 219 535T175 350Q175 227 218 165T336 103Q411 103 454 165Z" />
<glyph unicode="1" glyph-name="one" horiz-adv-x="381" d="M286 700V0H156V591H8V700H286Z" />
<glyph unicode="2" glyph-name="two" horiz-adv-x="582" d="M551 110V0H35V87L313 351Q360 396 376 429T393 496Q393 545 360 571T263 597Q156 597 99 524L8 594Q49 649 118 679T274 710Q388 710 456 656T524 509Q524 452 500 402T408 288L221 110H551Z" />
<glyph unicode="3" glyph-name="three" horiz-adv-x="582" d="M439 399T490 345T541 210Q541 149 510 99T417 20T264 -10Q189 -10 120 11T1 71L57 172Q95 140 149 122T262 103Q331 103 370 131T410 209Q410 258 373 285T258 313H194V402L353 591H35V700H512V613L342
411Q439 399 490 345Z" />
<glyph unicode="4" glyph-name="four" horiz-adv-x="679" d="M668 159H544V0H418V159H34V249L379 700H518L193 269H422V410H544V269H668V159Z" />
<glyph unicode="5" glyph-name="five" horiz-adv-x="584" d="M411 429T482 372T553 215Q553 152 522 101T429 20T276 -10Q201 -10 131 11T13 71L68 172Q107 140 161 122T274 103Q343 103 382 131T422 210Q422 264 380 291T234 319H65L101 700H512V591H211L196
429H263Q411 429 482 372Z" />
<glyph unicode="6" glyph-name="six" horiz-adv-x="627" d="M431 432T486 406T572 330T603 217Q603 149 569 98T477 18T347 -10Q203 -10 124 80T44 338Q44 456 87 539T207 666T387 710Q441 710 488 699T571 665L523 567Q471 601 390 601Q289 601 232 539T175 360V359Q206
395 254 413T362 432Q431 432 486 406ZM401 92T439 124T477 211Q477 266 439 298T337 330Q274 330 235 296T195 210Q195 159 233 126T340 92Q401 92 439 124Z" />
<glyph unicode="7" glyph-name="seven" horiz-adv-x="608" d="M572 700V613L300 0H161L424 590H149V471H28V700H572Z" />
<glyph unicode="8" glyph-name="eight" horiz-adv-x="652" d="M553 343T582 301T612 201Q612 137 577 89T476 16T325 -10Q239 -10 175 15T75 89T40 201Q40 258 69 300T152 368Q110 391 88 428T65 515Q65 574 97 618T189 686T325 710Q403 710 462 686T554 618T587
515Q587 466 564 429T498 368Q553 343 582 301ZM264 608T229 582T193 509Q193 464 228 438T325 411Q387 411 423 437T459 509Q459 556 423 582T325 608Q264 608 229 582ZM397 92T439 122T481 205Q481 257 439 287T325 317Q253 317 212 287T171 205Q171 152 212
122T325 92Q397 92 439 122Z" />
<glyph unicode="9" glyph-name="nine" horiz-adv-x="627" d="M424 710T503 620T583 362Q583 244 540 161T420 34T240 -10Q186 -10 139 1T56 35L104 133Q156 99 237 99Q338 99 395 161T452 340V341Q421 305 373 287T265 268Q196 268 141 294T55 370T24 483Q24 551
58 602T150 682T280 710Q424 710 503 620ZM353 370T392 404T432 490Q432 541 394 574T287 608Q226 608 188 576T150 489Q150 434 188 402T290 370Q353 370 392 404Z" />
<glyph unicode=":" glyph-name="colon" horiz-adv-x="244" d="M88 374T64 397T40 457Q40 494 63 517T122 540Q157 540 180 517T204 457Q204 421 180 398T122 374Q88 374 64 397ZM88 -7T64 16T40 76Q40 113 63 136T122 159Q157 159 180 136T204 76Q204 40 180 17T122
-7Q88 -7 64 16Z" />
<glyph unicode=";" glyph-name="semicolon" horiz-adv-x="244" d="M88 374T64 397T40 457Q40 494 63 517T122 540Q157 540 180 517T204 457Q204 421 180 398T122 374Q88 374 64 397ZM158 159T181 136T204 76Q204 60 200 43T181 -10L130 -151H49L89 2Q67 11 55
30T42 76Q42 113 65 136T123 159Q158 159 181 136Z" />
<glyph unicode="&lt;" glyph-name="less" horiz-adv-x="590" d="M526 479L181 350L526 221V117L65 296V404L526 583V479Z" />
<glyph unicode="=" glyph-name="equal" horiz-adv-x="590" d="M65 521H526V421H65V521ZM65 279H526V179H65V279Z" />
<glyph unicode="&gt;" glyph-name="greater" horiz-adv-x="590" d="M526 404V296L65 117V221L410 350L65 479V583L526 404Z" />
<glyph unicode="?" glyph-name="question" horiz-adv-x="581" d="M222 286T246 321T318 399Q354 431 371 454T389 508Q389 550 355 576T264 602Q156 602 101 525L4 588Q47 647 115 678T275 710Q387 710 453 662T520 528Q520 487 507 456T474 404T424 354Q386 320
368 294T349 232H222Q222 286 246 321ZM251 -7T229 15T206 71Q206 104 228 126T286 148Q320 148 342 126T365 71Q365 38 343 16T286 -7Q251 -7 229 15Z" />
<glyph unicode="@" glyph-name="at" horiz-adv-x="1034" d="M658 709T765 653T931 497T991 271Q991 141 940 68T799 -6Q751 -6 718 16T672 81Q612 -6 492 -6Q424 -6 369 26T283 117T252 249Q252 322 283 379T369 469T492 502Q545 502 587 484T659 431V496H770V156Q770
120 784 104T822 88Q863 88 884 134T906 269Q906 375 858 456T722 582T522 627Q408 627 320 580T184 447T136 254Q136 144 183 59T318 -73T518 -121Q567 -121 617 -110T712 -77L739 -157Q695 -180 636 -192T518 -204Q378 -204 271 -145T104 18T44 254Q44 384 104
487T272 650T522 709Q658 709 765 653ZM578 91T619 133T661 249Q661 321 620 363T513 405Q447 405 406 363T365 249Q365 177 406 134T513 91Q578 91 619 133Z" />
<glyph unicode="A" glyph-name="A" horiz-adv-x="749" d="M548 162H198L129 0H-5L310 700H438L754 0H618L548 162ZM505 264L373 570L242 264H505Z" />
<glyph unicode="B" glyph-name="B" horiz-adv-x="761" d="M648 345T682 301T716 190Q716 99 646 50T442 0H94V700H422Q546 700 613 652T680 518Q680 466 656 426T590 364Q648 345 682 301ZM224 598V405H408Q476 405 512 429T549 501Q549 549 513 573T408 598H224ZM585
102T585 203Q585 304 434 304H224V102H434Q585 102 585 203Z" />
<glyph unicode="C" glyph-name="C" horiz-adv-x="727" d="M312 -10T227 36T93 165T44 350Q44 453 93 535T227 663T419 710Q505 710 576 680T696 593L612 514Q536 596 425 596Q353 596 296 565T207 477T175 350Q175 279 207 223T296 136T425 104Q536 104 612 187L696
107Q647 50 576 20T418 -10Q312 -10 227 36Z" />
<glyph unicode="D" glyph-name="D" horiz-adv-x="826" d="M94 700H400Q512 700 599 657T734 534T782 350Q782 246 734 167T599 44T400 0H94V700ZM394 110Q471 110 529 139T619 223T651 350Q651 422 620 476T530 560T394 590H224V110H394Z" />
<glyph unicode="E" glyph-name="E" horiz-adv-x="670" d="M619 109V0H94V700H605V591H224V409H562V302H224V109H619Z" />
<glyph unicode="F" glyph-name="F" horiz-adv-x="637" d="M224 591V378H562V268H224V0H94V700H605V591H224Z" />
<glyph unicode="G" glyph-name="G" horiz-adv-x="772" d="M572 358H695V79Q641 36 569 13T421 -10Q314 -10 228 36T93 165T44 350Q44 453 93 535T228 663T423 710Q511 710 583 681T704 596L622 516Q542 596 429 596Q355 596 298 565T208 478T175 350Q175 280 207
224T297 136T428 104Q510 104 572 140V358Z" />
<glyph unicode="H" glyph-name="H" horiz-adv-x="810" d="M716 700V0H586V300H224V0H94V700H224V411H586V700H716Z" />
<glyph unicode="I" glyph-name="I" horiz-adv-x="319" d="M94 700H224V0H94V700Z" />
<glyph unicode="J" glyph-name="J" horiz-adv-x="527" d="M136 -10T80 16T-13 91L61 180Q119 100 200 100Q309 100 309 229V591H60V700H439V236Q439 113 379 52T203 -10Q136 -10 80 16Z" />
<glyph unicode="K" glyph-name="K" horiz-adv-x="729" d="M335 293L224 179V0H94V700H224V341L570 700H716L422 387L734 0H582L335 293Z" />
<glyph unicode="L" glyph-name="L" horiz-adv-x="599" d="M94 700H224V110H590V0H94V700Z" />
<glyph unicode="M" glyph-name="M" horiz-adv-x="955" d="M737 0L736 464L506 80H448L218 458V0H94V700H201L479 236L752 700H859L860 0H737Z" />
<glyph unicode="N" glyph-name="N" horiz-adv-x="810" d="M716 700V0H609L223 474V0H94V700H201L587 226V700H716Z" />
<glyph unicode="O" glyph-name="O" horiz-adv-x="842" d="M314 -10T228 36T93 165T44 350Q44 452 93 534T228 663T421 710Q528 710 614 664T749 535T798 350Q798 247 749 165T614 37T421 -10Q314 -10 228 36ZM491 104T547 135T635 223T667 350Q667 420 635 476T547
564T421 596Q351 596 295 565T207 477T175 350Q175 280 207 224T295 136T421 104Q491 104 547 135Z" />
<glyph unicode="P" glyph-name="P" horiz-adv-x="726" d="M473 700T540 670T644 584T680 451Q680 375 644 319T541 232T382 202H224V0H94V700H382Q473 700 540 670ZM461 312T505 348T549 451Q549 518 505 554T376 590H224V312H376Q461 312 505 348Z" />
<glyph unicode="Q" glyph-name="Q" horiz-adv-x="842" d="M833 -70Q798 -111 752 -132T650 -153Q578 -153 518 -121T381 -8Q284 0 207 48T87 175T44 350Q44 452 93 534T228 663T421 710Q528 710 614 664T749 535T798 350Q798 267 765 197T673 77T536 5Q565 -26
593 -40T653 -54Q722 -54 773 2L833 -70ZM175 280T207 224T295 136T421 104Q491 104 547 135T635 223T667 350Q667 420 635 476T547 564T421 596Q351 596 295 565T207 477T175 350Q175 280 207 224Z" />
<glyph unicode="R" glyph-name="R" horiz-adv-x="731" d="M552 0L409 205Q400 204 382 204H224V0H94V700H382Q473 700 540 670T644 584T680 451Q680 372 642 315T531 230L692 0H552ZM549 518T505 554T376 590H224V311H376Q461 311 505 347T549 451Q549 518 505 554Z" />
<glyph unicode="S" glyph-name="S" horiz-adv-x="629" d="M230 -10T155 13T35 74L80 175Q123 141 185 120T311 98Q389 98 427 123T466 189Q466 219 445 238T390 269T300 294Q220 313 171 332T86 391T50 501Q50 559 81 606T176 682T332 710Q396 710 458 694T565
648L524 547Q478 574 428 588T331 602Q254 602 217 576T179 507Q179 477 200 458T255 428T345 403Q423 385 473 366T558 306T594 198Q594 140 563 93T467 18T311 -10Q230 -10 155 13Z" />
<glyph unicode="T" glyph-name="T" horiz-adv-x="602" d="M236 590H4V700H598V590H366V0H236V590Z" />
<glyph unicode="U" glyph-name="U" horiz-adv-x="789" d="M250 -10T169 71T88 305V700H218V310Q218 104 396 104Q573 104 573 310V700H701V305Q701 153 621 72T395 -10Q250 -10 169 71Z" />
<glyph unicode="V" glyph-name="V" horiz-adv-x="729" d="M734 700L429 0H301L-5 700H136L369 160L604 700H734Z" />
<glyph unicode="W" glyph-name="W" horiz-adv-x="1144" d="M1117 700L885 0H747L574 518L398 0H259L27 700H162L336 168L517 700H637L814 165L993 700H1117Z" />
<glyph unicode="X" glyph-name="X" horiz-adv-x="693" d="M535 0L345 266L157 0H9L269 357L23 700H170L349 451L526 700H667L422 362L685 0H535Z" />
<glyph unicode="Y" glyph-name="Y" horiz-adv-x="661" d="M396 247V0H266V245L-9 700H130L335 359L542 700H670L396 247Z" />
<glyph unicode="Z" glyph-name="Z" horiz-adv-x="663" d="M638 110V0H41V87L453 590H48V700H625V613L213 110H638Z" />
<glyph unicode="[" glyph-name="bracketleft" horiz-adv-x="350" d="M94 742H333V642H219V-94H333V-194H94V742Z" />
<glyph unicode="\" glyph-name="backslash" horiz-adv-x="371" d="M290 -100L-40 842H72L402 -100H290Z" />
<glyph unicode="]" glyph-name="bracketright" horiz-adv-x="350" d="M17 -194V-94H130V642H17V742H255V-194H17Z" />
<glyph unicode="^" glyph-name="asciicircum" horiz-adv-x="591" d="M427 142L296 459L164 142H66L245 558H347L525 142H427Z" />
<glyph unicode="_" glyph-name="underscore" horiz-adv-x="500" d="M0 0H500V-76H0V0Z" />
<glyph unicode="`" glyph-name="grave" horiz-adv-x="600" d="M102 744H249L384 607H276L102 744Z" />
<glyph unicode="a" glyph-name="a" horiz-adv-x="607" d="M404 540T466 484T529 313V0H411V65Q388 30 346 12T243 -7Q183 -7 138 13T69 70T44 153Q44 225 97 268T266 312H404V320Q404 376 371 406T271 436Q226 436 183 422T109 383L60 474Q102 506 161 523T286
540Q404 540 466 484ZM316 84T352 105T404 167V229H275Q167 229 167 158Q167 124 194 104T269 84Q316 84 352 105Z" />
<glyph unicode="b" glyph-name="b" horiz-adv-x="686" d="M456 540T517 506T614 410T649 267Q649 186 614 124T518 27T378 -7Q323 -7 278 12T201 69V0H82V742H207V469Q239 504 282 522T378 540Q456 540 517 506ZM433 100T477 146T522 267Q522 342 478 388T364
434Q319 434 283 414T226 355T205 267Q205 217 226 179T283 121T364 100Q433 100 477 146Z" />
<glyph unicode="c" glyph-name="c" horiz-adv-x="581" d="M244 -7T178 28T75 125T38 267Q38 346 75 408T177 505T327 540Q406 540 465 508T555 416L459 360Q436 397 402 415T326 434Q256 434 210 389T164 267Q164 191 209 146T326 100Q367 100 401 118T459 174L555
118Q524 58 465 26T327 -7Q244 -7 178 28Z" />
<glyph unicode="d" glyph-name="d" horiz-adv-x="687" d="M605 742V0H485V69Q454 31 409 12T308 -7Q231 -7 170 27T73 123T38 267Q38 348 73 410T169 506T308 540Q361 540 405 522T480 468V742H605ZM368 100T404 120T461 179T482 267Q482 317 461 355T404 413T323
434Q278 434 242 414T185 355T164 267Q164 217 185 179T242 121T323 100Q368 100 404 120Z" />
<glyph unicode="e" glyph-name="e" horiz-adv-x="622" d="M584 251T582 227H163Q174 168 220 134T336 99Q424 99 481 157L548 80Q512 37 457 15T333 -7Q245 -7 178 28T75 125T38 267Q38 345 73 407T172 505T314 540Q392 540 453 506T549 409T584 264Q584 251 582
227ZM254 440T213 405T162 310H465Q457 368 416 404T314 440Q254 440 213 405Z" />
<glyph unicode="f" glyph-name="f" horiz-adv-x="369" d="M220 648T220 562V530H367V430H224V0H99V430H11V530H99V564Q99 650 149 699T290 749Q362 749 403 720L368 626Q336 648 299 648Q220 648 220 562Z" />
<glyph unicode="g" glyph-name="g" horiz-adv-x="694" d="M612 534V81Q612 -201 324 -201Q247 -201 178 -182T64 -125L120 -31Q155 -60 208 -77T317 -95Q405 -95 446 -55T487 67V95Q455 60 409 42T308 24Q232 24 171 56T74 148T38 283Q38 359 73 417T170 508T308
540Q366 540 413 521T493 463V534H612ZM398 130T443 172T489 283Q489 350 444 392T327 434Q255 434 210 392T164 283Q164 215 209 173T327 130Q398 130 443 172Z" />
<glyph unicode="h" glyph-name="h" horiz-adv-x="685" d="M486 540T547 481T608 306V0H483V290Q483 360 450 395T356 431Q287 431 247 390T207 270V0H82V742H207V472Q238 505 283 522T385 540Q486 540 547 481Z" />
<glyph unicode="i" glyph-name="i" horiz-adv-x="289" d="M82 534H207V0H82V534ZM111 622T88 643T65 697Q65 729 88 750T145 772Q179 772 202 752T225 700Q225 667 203 645T145 622Q111 622 88 643Z" />
<glyph unicode="j" glyph-name="j" horiz-adv-x="295" d="M-52 -201T-93 -170L-57 -77Q-29 -98 16 -98Q51 -98 69 -77T88 -13V534H213V-10Q213 -99 164 -150T27 -201Q-52 -201 -93 -170ZM116 622T93 643T70 697Q70 729 93 750T150 772Q184 772 207 752T230 700Q230
667 208 645T150 622Q116 622 93 643Z" />
<glyph unicode="k" glyph-name="k" horiz-adv-x="636" d="M300 229L207 141V0H82V742H207V294L466 534H616L393 310L637 0H485L300 229Z" />
<glyph unicode="l" glyph-name="l" horiz-adv-x="289" d="M82 742H207V0H82V742Z" />
<glyph unicode="m" glyph-name="m" horiz-adv-x="1053" d="M857 540T916 482T975 306V0H850V290Q850 360 819 395T730 431Q667 431 629 390T591 271V0H466V290Q466 360 435 395T346 431Q282 431 245 390T207 271V0H82V534H201V466Q231 502 276 521T376 540Q436
540 482 518T556 451Q589 493 641 516T756 540Q857 540 916 482Z" />
<glyph unicode="n" glyph-name="n" horiz-adv-x="685" d="M486 540T547 481T608 306V0H483V290Q483 360 450 395T356 431Q287 431 247 390T207 270V0H82V534H201V465Q232 502 279 521T385 540Q486 540 547 481Z" />
<glyph unicode="o" glyph-name="o" horiz-adv-x="645" d="M241 -7T176 28T75 125T38 267Q38 346 74 408T176 505T322 540Q404 540 469 505T570 408T607 267Q607 188 571 126T469 28T322 -7Q241 -7 176 28ZM391 100T436 146T481 267Q481 342 436 388T322 434Q253
434 209 388T164 267Q164 192 208 146T322 100Q391 100 436 146Z" />
<glyph unicode="p" glyph-name="p" horiz-adv-x="686" d="M456 540T517 506T614 410T649 267Q649 186 614 124T518 27T378 -7Q270 -7 207 65V-194H82V534H201V464Q232 502 277 521T378 540Q456 540 517 506ZM433 100T477 146T522 267Q522 342 478 388T364 434Q319
434 283 414T226 355T205 267Q205 217 226 179T283 121T364 100Q433 100 477 146Z" />
<glyph unicode="q" glyph-name="q" horiz-adv-x="686" d="M604 534V-194H479V65Q416 -7 308 -7Q230 -7 169 27T73 123T38 267Q38 348 73 410T169 506T308 540Q363 540 408 521T485 464V534H604ZM391 100T436 146T481 267Q481 342 436 388T322 434Q253 434 209
388T164 267Q164 192 208 146T322 100Q391 100 436 146Z" />
<glyph unicode="r" glyph-name="r" horiz-adv-x="420" d="M255 540T391 540V421Q375 424 362 424Q289 424 248 382T207 259V0H82V534H201V456Q255 540 391 540Z" />
<glyph unicode="s" glyph-name="s" horiz-adv-x="515" d="M182 -7T120 10T21 53L69 148Q105 124 155 110T255 95Q367 95 367 154Q367 182 339 193T247 214Q181 224 140 237T68 282T37 373Q37 449 100 494T272 540Q327 540 382 528T472 494L424 399Q356 439 271
439Q216 439 188 423T159 379Q159 349 189 337T284 313Q348 303 389 290T459 246T489 158Q489 83 424 38T247 -7Q182 -7 120 10Z" />
<glyph unicode="t" glyph-name="t" horiz-adv-x="424" d="M403 29Q381 11 350 2T283 -7Q195 -7 147 39T99 173V430H11V530H99V652H224V530H367V430H224V176Q224 137 243 117T298 96Q340 96 368 118L403 29Z" />
<glyph unicode="u" glyph-name="u" horiz-adv-x="681" d="M599 534V0H480V68Q450 32 405 13T308 -7Q201 -7 140 52T78 229V534H203V246Q203 174 235 139T328 103Q395 103 434 144T474 264V534H599Z" />
<glyph unicode="v" glyph-name="v" horiz-adv-x="578" d="M582 534L353 0H224L-5 534H125L291 138L462 534H582Z" />
<glyph unicode="w" glyph-name="w" horiz-adv-x="919" d="M915 534L718 0H598L460 368L320 0H200L4 534H122L263 140L410 534H515L659 138L804 534H915Z" />
<glyph unicode="x" glyph-name="x" horiz-adv-x="573" d="M422 0L285 185L147 0H9L217 271L18 534H157L288 359L419 534H554L354 273L563 0H422Z" />
<glyph unicode="y" glyph-name="y" horiz-adv-x="578" d="M582 534L332 -43Q297 -130 247 -165T126 -201Q86 -201 47 -188T-17 -152L33 -60Q51 -77 75 -87T125 -97Q158 -97 179 -80T219 -23L228 -2L-5 534H125L293 139L462 534H582Z" />
<glyph unicode="z" glyph-name="z" horiz-adv-x="532" d="M499 100V0H38V79L331 434H44V534H491V455L197 100H499Z" />
<glyph unicode="{" glyph-name="braceleft" horiz-adv-x="370" d="M258 331T244 308T199 274Q230 264 244 241T258 172V-18Q258 -55 276 -74T332 -94H353V-194H303Q219 -194 176 -153T133 -31V175Q133 223 88 223H55V325H88Q133 325 133 373V579Q133 659 176 700T303
742H353V642H332Q295 642 277 623T258 566V376Q258 331 244 308Z" />
<glyph unicode="|" glyph-name="bar" horiz-adv-x="303" d="M94 742H209V-194H94V742Z" />
<glyph unicode="}" glyph-name="braceright" horiz-adv-x="370" d="M316 325V223H282Q261 223 250 211T238 175V-31Q238 -111 195 -152T67 -194H17V-94H38Q76 -94 94 -75T113 -18V172Q113 218 126 241T171 274Q140 284 127 307T113 376V566Q113 603 95 622T38
642H17V742H67Q151 742 194 701T238 579V373Q238 349 249 337T282 325H316Z" />
<glyph unicode="~" glyph-name="asciitilde" horiz-adv-x="590" d="M360 258T333 272T273 313Q245 334 231 342T200 350Q171 350 154 327T134 266H54Q56 353 94 398T194 444Q231 444 258 430T319 388Q343 369 358 360T390 351Q420 351 437 374T457 436H536Q535
348 497 303T396 258Q360 258 333 272Z" />
<glyph unicode="&#xa0;" glyph-name="uni00A0" horiz-adv-x="276" />
<glyph unicode="&#xa1;" glyph-name="exclamdown" horiz-adv-x="278" d="M174 540T196 518T219 462Q219 430 197 408T140 386Q105 386 82 408T59 462Q59 495 82 517T140 540Q174 540 196 518ZM214 -154H66L90 302H189L214 -154Z" />
<glyph unicode="&#xa2;" glyph-name="cent" horiz-adv-x="581" d="M423 116T459 174L555 118Q527 64 477 33T359 -6V-120H278V-4Q207 6 153 43T68 138T38 267Q38 338 68 396T152 490T278 537V654H359V539Q426 533 477 502T555 416L459 360Q423 418 359 431V103Q423
116 459 174ZM164 205T195 163T278 106V428Q226 413 195 371T164 267Q164 205 195 163Z" />
<glyph unicode="&#xa3;" glyph-name="sterling" horiz-adv-x="657" d="M265 109H626V0H30V109H135V309H30V391H135V437Q135 520 171 581T278 676T446 710Q565 710 643 663L602 557Q541 596 439 596Q354 596 310 556T265 438V391H518V309H265V109Z" />
<glyph unicode="&#xa4;" glyph-name="currency" horiz-adv-x="700" d="M618 239T570 170L671 70L600 -5L494 100Q429 59 350 59Q270 59 206 101L99 -5L28 70L130 172Q83 240 83 320Q83 399 128 466L28 565L99 640L202 538Q268 582 350 582Q430 582 498 539L600
640L671 565L572 467Q618 400 618 320Q618 239 570 170ZM395 160T434 181T496 240T519 320Q519 364 496 401T434 459T350 481Q305 481 267 460T206 401T183 320Q183 277 205 240T266 182T350 160Q395 160 434 181Z" />
<glyph unicode="&#xa5;" glyph-name="yen" horiz-adv-x="721" d="M459 312H625V242H426V174H625V104H426V0H296V104H97V174H296V242H97V312H262L-9 700H129L364 364L599 700H730L459 312Z" />
<glyph unicode="&#xa6;" glyph-name="brokenbar" horiz-adv-x="303" d="M94 742H209V392H94V742ZM94 156H209V-194H94V156Z" />
<glyph unicode="&#xa7;" glyph-name="section" horiz-adv-x="511" d="M479 256T461 224T410 170Q458 132 458 63Q458 13 431 -25T354 -85T237 -107Q177 -107 117 -90T24 -46L61 47Q95 21 143 5T240 -11Q290 -11 318 7T347 60Q347 94 317 109T222 139Q162 153 124
168T59 215T32 301Q32 343 50 376T101 430Q54 469 54 536Q54 613 118 660T294 707Q344 707 399 694T486 658L449 567Q379 611 286 611Q226 611 196 593T165 540Q165 518 180 504T219 483T285 464Q345 450 384 434T451 385T479 294Q479 256 461 224ZM141 284T157
269T199 244T269 225Q299 218 309 215Q337 225 353 245T370 292Q370 317 354 332T312 357T242 376Q212 383 202 386Q174 376 158 356T141 309Q141 284 157 269Z" />
<glyph unicode="&#xa8;" glyph-name="dieresis" horiz-adv-x="600" d="M177 618T160 635T143 678Q143 705 160 722T203 739Q229 739 246 722T263 678Q263 652 246 635T203 618Q177 618 160 635ZM371 618T354 635T337 678Q337 705 354 722T397 739Q423 739 440
722T457 678Q457 652 440 635T397 618Q371 618 354 635Z" />
<glyph unicode="&#xa9;" glyph-name="copyright" horiz-adv-x="794" d="M298 -3T218 44T91 172T44 350Q44 447 90 528T218 656T398 703Q497 703 577 657T704 531T750 352Q750 254 703 173T575 44T396 -3Q298 -3 218 44ZM479 52T546 92T653 200T692 352Q692 435
654 502T549 609T398 648Q314 648 246 609T140 501T101 350Q101 267 139 199T245 92T396 52Q479 52 546 92ZM346 146T298 172T223 244T196 350Q196 409 223 455T298 528T407 554Q463 554 506 531T574 467L501 419Q470 469 406 469Q357 469 325 437T292 350Q292
296 324 264T406 231Q470 231 501 281L574 235Q550 193 507 170T407 146Q346 146 298 172Z" />
<glyph unicode="&#xaa;" glyph-name="ordfeminine" horiz-adv-x="408" d="M349 749T349 611V426H268V462Q254 444 226 433T160 422Q99 422 66 448T33 518Q33 562 67 587T174 612H262V615Q262 683 180 683Q152 683 124 674T75 650L43 706Q70 726 110 737T190 749Q349
749 349 611ZM240 480T262 522V561H186Q116 561 116 521Q116 501 133 491T180 480Q240 480 262 522Z" />
<glyph unicode="&#xab;" glyph-name="guillemotleft" horiz-adv-x="535" d="M42 267L184 461H297L158 267L297 74H184L42 267ZM250 267L392 461H505L366 267L505 74H392L250 267Z" />
<glyph unicode="&#xac;" glyph-name="logicalnot" horiz-adv-x="590" d="M526 124H419V301H65V401H526V124Z" />
<glyph unicode="&#xad;" glyph-name="uni00AD" horiz-adv-x="385" d="M55 330H330V226H55V330Z" />
<glyph unicode="&#xae;" glyph-name="registered" horiz-adv-x="794" d="M497 703T577 657T704 531T750 352Q750 254 703 173T575 44T396 -3Q298 -3 218 44T91 172T44 350Q44 447 90 528T218 656T398 703Q497 703 577 657ZM479 52T546 92T653 200T692 352Q692
435 654 502T549 609T398 648Q314 648 246 609T140 501T101 350Q101 267 139 199T245 92T396 52Q479 52 546 92ZM579 366T559 335T500 288L588 153H502L424 273H413H335V153H249V547H413Q490 547 534 510T579 410Q579 366 559 335ZM408 340Q450 340 473 358T496
410Q496 443 473 461T408 479H334V340H408Z" />
<glyph unicode="&#xaf;" glyph-name="overscore" horiz-adv-x="600" d="M127 713H473V638H127V713Z" />
<glyph unicode="&#xb0;" glyph-name="degree" horiz-adv-x="419" d="M162 373T123 395T62 456T39 540Q39 586 61 624T123 685T209 708Q256 708 295 686T356 625T379 540Q379 494 357 456T295 396T209 373Q162 373 123 395ZM252 439T280 468T309 540Q309 584 281
613T209 642Q166 642 137 613T108 540Q108 497 137 468T209 439Q252 439 280 468Z" />
<glyph unicode="&#xb1;" glyph-name="plusminus" horiz-adv-x="590" d="M526 464V365H349V197H242V365H65V464H242V633H349V464H526ZM65 100H526V0H65V100Z" />
<glyph unicode="&#xb2;" glyph-name="uni00B2" horiz-adv-x="430" d="M384 398V327H44V383L223 539Q254 567 265 584T277 620Q277 644 256 659T191 674Q157 674 130 663T87 630L24 675Q50 710 94 729T198 749Q277 749 322 715T367 626Q367 594 352 566T290 498L176
398H384Z" />
<glyph unicode="&#xb3;" glyph-name="uni00B3" horiz-adv-x="430" d="M321 566T355 534T389 452Q389 416 368 386T304 338T201 320Q147 320 98 333T22 369L57 436Q83 417 121 406T201 395Q249 395 274 410T299 452Q299 479 276 494T206 509H154V567L254 671H38V742H367V686L257
573Q321 566 355 534Z" />
<glyph unicode="&#xb4;" glyph-name="acute" horiz-adv-x="600" d="M351 744H498L324 607H216L351 744Z" />
<glyph unicode="&#xb5;" glyph-name="uni00B5" horiz-adv-x="686" d="M604 534V0H487V71Q461 31 420 12T334 -7Q252 -7 207 40V-194H82V534H207V246Q207 174 239 139T333 103Q400 103 439 144T479 264V534H604Z" />
<glyph unicode="&#xb6;" glyph-name="paragraph" horiz-adv-x="666" d="M227 371Q134 373 76 423T17 557Q17 642 79 692T247 742H572V-100H469V648H330V-100H227V371Z" />
<glyph unicode="&#xb7;" glyph-name="middot" horiz-adv-x="284" d="M107 195T84 218T60 279Q60 315 83 338T142 362Q178 362 201 339T224 279Q224 241 201 218T142 195Q107 195 84 218Z" />
<glyph unicode="&#xb8;" glyph-name="cedilla" horiz-adv-x="600" d="M217 -228T179 -207L202 -148Q233 -164 270 -164Q323 -164 323 -128Q323 -113 310 -104T270 -95H239L266 7H334L320 -49Q363 -54 385 -76T407 -133Q407 -176 370 -202T271 -228Q217 -228 179 -207Z" />
<glyph unicode="&#xb9;" glyph-name="uni00B9" horiz-adv-x="430" d="M374 398V327H77V398H187V671H85V742H278V398H374Z" />
<glyph unicode="&#xba;" glyph-name="ordmasculine" horiz-adv-x="422" d="M159 422T117 443T52 501T28 586Q28 632 51 669T117 728T211 749Q264 749 305 728T370 670T394 586Q394 539 371 502T306 443T211 422Q159 422 117 443ZM255 493T281 518T308 586Q308
627 281 652T211 678Q168 678 141 653T114 586Q114 544 140 519T211 493Q255 493 281 518Z" />
<glyph unicode="&#xbb;" glyph-name="guillemotright" horiz-adv-x="535" d="M30 74L169 267L30 461H143L285 267L143 74H30ZM238 74L377 267L238 461H351L493 267L351 74H238Z" />
<glyph unicode="&#xbc;" glyph-name="onequarter" horiz-adv-x="1039" d="M374 356V285H77V356H187V629H85V700H278V356H374ZM710 700H807L329 0H232L710 700ZM1016 92H942V0H854V92H626V150L821 415H920L734 163H862V240H942V163H1016V92Z" />
<glyph unicode="&#xbd;" glyph-name="onehalf" horiz-adv-x="1039" d="M374 356V285H77V356H187V629H85V700H278V356H374ZM710 700H807L329 0H232L710 700ZM993 71V0H653V56L832 212Q863 240 874 257T886 293Q886 317 865 332T800 347Q766 347 739 336T696 303L633
348Q659 383 703 402T807 422Q886 422 931 388T976 299Q976 267 961 239T899 171L785 71H993Z" />
<glyph unicode="&#xbe;" glyph-name="threequarters" horiz-adv-x="1039" d="M321 524T355 492T389 410Q389 374 368 344T304 296T201 278Q147 278 98 291T22 327L57 394Q83 375 121 364T201 353Q249 353 274 368T299 410Q299 437 276 452T206 467H154V525L254
629H38V700H367V644L257 531Q321 524 355 492ZM710 700H807L329 0H232L710 700ZM1016 92H942V0H854V92H626V150L821 415H920L734 163H862V240H942V163H1016V92Z" />
<glyph unicode="&#xbf;" glyph-name="questiondown" horiz-adv-x="581" d="M260 386T238 408T215 462Q215 495 237 517T295 540Q330 540 352 518T375 462Q375 430 353 408T295 386Q260 386 238 408ZM195 -164T128 -117T61 12Q61 52 74 83T107 135T157 183Q196
218 214 242T232 302H359Q359 265 346 236T314 187T264 139Q227 107 210 84T192 31Q192 -7 226 -31T317 -56Q423 -56 480 21L576 -42Q534 -100 466 -132T306 -164Q195 -164 128 -117Z" />
<glyph unicode="&#xc0;" glyph-name="Agrave" horiz-adv-x="749" d="M548 162H198L129 0H-5L310 700H438L754 0H618L548 162ZM505 264L373 570L242 264H505ZM176 894H323L458 757H350L176 894Z" />
<glyph unicode="&#xc1;" glyph-name="Aacute" horiz-adv-x="749" d="M548 162H198L129 0H-5L310 700H438L754 0H618L548 162ZM505 264L373 570L242 264H505ZM425 894H572L398 757H290L425 894Z" />
<glyph unicode="&#xc2;" glyph-name="Acircumflex" horiz-adv-x="749" d="M548 162H198L129 0H-5L310 700H438L754 0H618L548 162ZM505 264L373 570L242 264H505ZM462 757L374 831L286 757H183L317 894H431L565 757H462Z" />
<glyph unicode="&#xc3;" glyph-name="Atilde" horiz-adv-x="749" d="M548 162H198L129 0H-5L310 700H438L754 0H618L548 162ZM505 264L373 570L242 264H505ZM421 757T403 767T357 797Q341 810 331 816T310 823Q289 823 276 807T261 763H194Q195 824 224 860T302
897Q327 897 345 887T391 857Q407 844 417 838T438 831Q459 831 472 846T487 888H554Q552 829 523 793T446 757Q421 757 403 767Z" />
<glyph unicode="&#xc4;" glyph-name="Adieresis" horiz-adv-x="749" d="M548 162H198L129 0H-5L310 700H438L754 0H618L548 162ZM505 264L373 570L242 264H505ZM251 768T234 785T217 828Q217 855 234 872T277 889Q303 889 320 872T337 828Q337 802 320 785T277
768Q251 768 234 785ZM445 768T428 785T411 828Q411 855 428 872T471 889Q497 889 514 872T531 828Q531 802 514 785T471 768Q445 768 428 785Z" />
<glyph unicode="&#xc5;" glyph-name="Aring" horiz-adv-x="749" d="M548 162H198L129 0H-5L310 700H438L754 0H618L548 162ZM505 264L373 570L242 264H505ZM324 759T291 792T257 873Q257 921 290 955T373 989Q423 989 456 955T490 873Q490 825 457 792T373 759Q324
759 291 792ZM401 810T419 828T437 873Q437 901 419 919T373 938Q346 938 328 920T310 873Q310 846 328 828T373 810Q401 810 419 828Z" />
<glyph unicode="&#xc6;" glyph-name="AE" horiz-adv-x="1063" d="M1012 109V0H487V162H221L129 0H-5L401 700H998V591H617V409H955V302H617V109H1012ZM487 264V591H465L279 264H487Z" />
<glyph unicode="&#xc7;" glyph-name="Ccedilla" horiz-adv-x="727" d="M312 -10T227 36T93 165T44 350Q44 453 93 535T227 663T419 710Q505 710 576 680T696 593L612 514Q536 596 425 596Q353 596 296 565T207 477T175 350Q175 279 207 223T296 136T425 104Q536
104 612 187L696 107Q647 50 576 20T418 -10Q312 -10 227 36ZM317 -228T279 -207L302 -148Q333 -164 370 -164Q423 -164 423 -128Q423 -113 410 -104T370 -95H339L366 7H434L420 -49Q463 -54 485 -76T507 -133Q507 -176 470 -202T371 -228Q317 -228 279 -207Z"
/>
<glyph unicode="&#xc8;" glyph-name="Egrave" horiz-adv-x="670" d="M619 109V0H94V700H605V591H224V409H562V302H224V109H619ZM153 894H300L435 757H327L153 894Z" />
<glyph unicode="&#xc9;" glyph-name="Eacute" horiz-adv-x="670" d="M619 109V0H94V700H605V591H224V409H562V302H224V109H619ZM402 894H549L375 757H267L402 894Z" />
<glyph unicode="&#xca;" glyph-name="Ecircumflex" horiz-adv-x="670" d="M619 109V0H94V700H605V591H224V409H562V302H224V109H619ZM439 757L351 831L263 757H160L294 894H408L542 757H439Z" />
<glyph unicode="&#xcb;" glyph-name="Edieresis" horiz-adv-x="670" d="M619 109V0H94V700H605V591H224V409H562V302H224V109H619ZM228 768T211 785T194 828Q194 855 211 872T254 889Q280 889 297 872T314 828Q314 802 297 785T254 768Q228 768 211 785ZM422 768T405
785T388 828Q388 855 405 872T448 889Q474 889 491 872T508 828Q508 802 491 785T448 768Q422 768 405 785Z" />
<glyph unicode="&#xcc;" glyph-name="Igrave" horiz-adv-x="319" d="M94 700H224V0H94V700ZM-39 894H108L243 757H135L-39 894Z" />
<glyph unicode="&#xcd;" glyph-name="Iacute" horiz-adv-x="319" d="M94 700H224V0H94V700ZM210 894H357L183 757H75L210 894Z" />
<glyph unicode="&#xce;" glyph-name="Icircumflex" horiz-adv-x="319" d="M94 700H224V0H94V700ZM247 757L159 831L71 757H-32L102 894H216L350 757H247Z" />
<glyph unicode="&#xcf;" glyph-name="Idieresis" horiz-adv-x="319" d="M94 700H224V0H94V700ZM36 768T19 785T2 828Q2 855 19 872T62 889Q88 889 105 872T122 828Q122 802 105 785T62 768Q36 768 19 785ZM230 768T213 785T196 828Q196 855 213 872T256 889Q282
889 299 872T316 828Q316 802 299 785T256 768Q230 768 213 785Z" />
<glyph unicode="&#xd0;" glyph-name="Eth" horiz-adv-x="836" d="M104 700H410Q522 700 609 657T744 534T792 350Q792 246 744 167T609 44T410 0H104V700ZM404 110Q481 110 539 139T629 223T661 350Q661 422 630 476T540 560T404 590H234V110H404ZM5 404H421V308H5V404Z" />
<glyph unicode="&#xd1;" glyph-name="Ntilde" horiz-adv-x="810" d="M716 700V0H609L223 474V0H94V700H201L587 226V700H716ZM452 757T434 767T388 797Q372 810 362 816T341 823Q320 823 307 807T292 763H225Q226 824 255 860T333 897Q358 897 376 887T422 857Q438
844 448 838T469 831Q490 831 503 846T518 888H585Q583 829 554 793T477 757Q452 757 434 767Z" />
<glyph unicode="&#xd2;" glyph-name="Ograve" horiz-adv-x="842" d="M314 -10T228 36T93 165T44 350Q44 452 93 534T228 663T421 710Q528 710 614 664T749 535T798 350Q798 247 749 165T614 37T421 -10Q314 -10 228 36ZM491 104T547 135T635 223T667 350Q667 420
635 476T547 564T421 596Q351 596 295 565T207 477T175 350Q175 280 207 224T295 136T421 104Q491 104 547 135ZM223 894H370L505 757H397L223 894Z" />
<glyph unicode="&#xd3;" glyph-name="Oacute" horiz-adv-x="842" d="M314 -10T228 36T93 165T44 350Q44 452 93 534T228 663T421 710Q528 710 614 664T749 535T798 350Q798 247 749 165T614 37T421 -10Q314 -10 228 36ZM491 104T547 135T635 223T667 350Q667 420
635 476T547 564T421 596Q351 596 295 565T207 477T175 350Q175 280 207 224T295 136T421 104Q491 104 547 135ZM472 894H619L445 757H337L472 894Z" />
<glyph unicode="&#xd4;" glyph-name="Ocircumflex" horiz-adv-x="842" d="M314 -10T228 36T93 165T44 350Q44 452 93 534T228 663T421 710Q528 710 614 664T749 535T798 350Q798 247 749 165T614 37T421 -10Q314 -10 228 36ZM491 104T547 135T635 223T667 350Q667
420 635 476T547 564T421 596Q351 596 295 565T207 477T175 350Q175 280 207 224T295 136T421 104Q491 104 547 135ZM509 757L421 831L333 757H230L364 894H478L612 757H509Z" />
<glyph unicode="&#xd5;" glyph-name="Otilde" horiz-adv-x="842" d="M314 -10T228 36T93 165T44 350Q44 452 93 534T228 663T421 710Q528 710 614 664T749 535T798 350Q798 247 749 165T614 37T421 -10Q314 -10 228 36ZM491 104T547 135T635 223T667 350Q667 420
635 476T547 564T421 596Q351 596 295 565T207 477T175 350Q175 280 207 224T295 136T421 104Q491 104 547 135ZM468 757T450 767T404 797Q388 810 378 816T357 823Q336 823 323 807T308 763H241Q242 824 271 860T349 897Q374 897 392 887T438 857Q454 844 464
838T485 831Q506 831 519 846T534 888H601Q599 829 570 793T493 757Q468 757 450 767Z" />
<glyph unicode="&#xd6;" glyph-name="Odieresis" horiz-adv-x="842" d="M314 -10T228 36T93 165T44 350Q44 452 93 534T228 663T421 710Q528 710 614 664T749 535T798 350Q798 247 749 165T614 37T421 -10Q314 -10 228 36ZM491 104T547 135T635 223T667 350Q667
420 635 476T547 564T421 596Q351 596 295 565T207 477T175 350Q175 280 207 224T295 136T421 104Q491 104 547 135ZM298 768T281 785T264 828Q264 855 281 872T324 889Q350 889 367 872T384 828Q384 802 367 785T324 768Q298 768 281 785ZM492 768T475 785T458
828Q458 855 475 872T518 889Q544 889 561 872T578 828Q578 802 561 785T518 768Q492 768 475 785Z" />
<glyph unicode="&#xd7;" glyph-name="multiply" horiz-adv-x="590" d="M366 350L493 222L424 149L295 279L166 149L99 222L225 350L99 478L166 551L295 421L424 551L493 478L366 350Z" />
<glyph unicode="&#xd8;" glyph-name="Oslash" horiz-adv-x="842" d="M314 -10T228 36T93 165T44 350Q44 452 93 534T228 663T421 710Q528 710 614 664T749 535T798 350Q798 247 749 165T614 37T421 -10Q314 -10 228 36ZM491 104T547 135T635 223T667 350Q667 420
635 476T547 564T421 596Q351 596 295 565T207 477T175 350Q175 280 207 224T295 136T421 104Q491 104 547 135ZM675 770H768L168 -70H75L675 770Z" />
<glyph unicode="&#xd9;" glyph-name="Ugrave" horiz-adv-x="789" d="M250 -10T169 71T88 305V700H218V310Q218 104 396 104Q573 104 573 310V700H701V305Q701 153 621 72T395 -10Q250 -10 169 71ZM198 894H345L480 757H372L198 894Z" />
<glyph unicode="&#xda;" glyph-name="Uacute" horiz-adv-x="789" d="M250 -10T169 71T88 305V700H218V310Q218 104 396 104Q573 104 573 310V700H701V305Q701 153 621 72T395 -10Q250 -10 169 71ZM447 894H594L420 757H312L447 894Z" />
<glyph unicode="&#xdb;" glyph-name="Ucircumflex" horiz-adv-x="789" d="M250 -10T169 71T88 305V700H218V310Q218 104 396 104Q573 104 573 310V700H701V305Q701 153 621 72T395 -10Q250 -10 169 71ZM484 757L396 831L308 757H205L339 894H453L587 757H484Z" />
<glyph unicode="&#xdc;" glyph-name="Udieresis" horiz-adv-x="789" d="M250 -10T169 71T88 305V700H218V310Q218 104 396 104Q573 104 573 310V700H701V305Q701 153 621 72T395 -10Q250 -10 169 71ZM273 768T256 785T239 828Q239 855 256 872T299 889Q325 889
342 872T359 828Q359 802 342 785T299 768Q273 768 256 785ZM467 768T450 785T433 828Q433 855 450 872T493 889Q519 889 536 872T553 828Q553 802 536 785T493 768Q467 768 450 785Z" />
<glyph unicode="&#xdd;" glyph-name="Yacute" horiz-adv-x="661" d="M396 247V0H266V245L-9 700H130L335 359L542 700H670L396 247ZM382 894H529L355 757H247L382 894Z" />
<glyph unicode="&#xde;" glyph-name="Thorn" horiz-adv-x="726" d="M473 618T540 588T644 502T680 369Q680 293 644 237T541 150T382 120H224V0H94V700H224V618H382Q473 618 540 588ZM461 230T505 266T549 369Q549 436 505 472T376 508H224V230H376Q461 230 505 266Z" />
<glyph unicode="&#xdf;" glyph-name="germandbls" horiz-adv-x="684" d="M571 371T609 323T647 204Q647 106 579 50T400 -7Q370 -7 338 -3T283 9L300 112Q338 99 392 99Q452 99 486 127T521 208Q521 259 483 287T379 315H324V418Q389 419 427 451T466 538Q466
587 434 615T344 643Q279 643 243 607T207 501V0H82V489Q82 573 116 631T209 719T344 749Q418 749 473 723T557 650T586 545Q586 495 564 456T505 390Q571 371 609 323Z" />
<glyph unicode="&#xe0;" glyph-name="agrave" horiz-adv-x="607" d="M404 540T466 484T529 313V0H411V65Q388 30 346 12T243 -7Q183 -7 138 13T69 70T44 153Q44 225 97 268T266 312H404V320Q404 376 371 406T271 436Q226 436 183 422T109 383L60 474Q102 506 161
523T286 540Q404 540 466 484ZM316 84T352 105T404 167V229H275Q167 229 167 158Q167 124 194 104T269 84Q316 84 352 105ZM99 744H246L381 607H273L99 744Z" />
<glyph unicode="&#xe1;" glyph-name="aacute" horiz-adv-x="607" d="M404 540T466 484T529 313V0H411V65Q388 30 346 12T243 -7Q183 -7 138 13T69 70T44 153Q44 225 97 268T266 312H404V320Q404 376 371 406T271 436Q226 436 183 422T109 383L60 474Q102 506 161
523T286 540Q404 540 466 484ZM316 84T352 105T404 167V229H275Q167 229 167 158Q167 124 194 104T269 84Q316 84 352 105ZM348 744H495L321 607H213L348 744Z" />
<glyph unicode="&#xe2;" glyph-name="acircumflex" horiz-adv-x="607" d="M404 540T466 484T529 313V0H411V65Q388 30 346 12T243 -7Q183 -7 138 13T69 70T44 153Q44 225 97 268T266 312H404V320Q404 376 371 406T271 436Q226 436 183 422T109 383L60 474Q102
506 161 523T286 540Q404 540 466 484ZM316 84T352 105T404 167V229H275Q167 229 167 158Q167 124 194 104T269 84Q316 84 352 105ZM385 607L297 681L209 607H106L240 744H354L488 607H385Z" />
<glyph unicode="&#xe3;" glyph-name="atilde" horiz-adv-x="607" d="M404 540T466 484T529 313V0H411V65Q388 30 346 12T243 -7Q183 -7 138 13T69 70T44 153Q44 225 97 268T266 312H404V320Q404 376 371 406T271 436Q226 436 183 422T109 383L60 474Q102 506 161
523T286 540Q404 540 466 484ZM316 84T352 105T404 167V229H275Q167 229 167 158Q167 124 194 104T269 84Q316 84 352 105ZM344 607T326 617T280 647Q264 660 254 666T233 673Q212 673 199 657T184 613H117Q118 674 147 710T225 747Q250 747 268 737T314 707Q330
694 340 688T361 681Q382 681 395 696T410 738H477Q475 679 446 643T369 607Q344 607 326 617Z" />
<glyph unicode="&#xe4;" glyph-name="adieresis" horiz-adv-x="607" d="M404 540T466 484T529 313V0H411V65Q388 30 346 12T243 -7Q183 -7 138 13T69 70T44 153Q44 225 97 268T266 312H404V320Q404 376 371 406T271 436Q226 436 183 422T109 383L60 474Q102 506
161 523T286 540Q404 540 466 484ZM316 84T352 105T404 167V229H275Q167 229 167 158Q167 124 194 104T269 84Q316 84 352 105ZM174 618T157 635T140 678Q140 705 157 722T200 739Q226 739 243 722T260 678Q260 652 243 635T200 618Q174 618 157 635ZM368 618T351
635T334 678Q334 705 351 722T394 739Q420 739 437 722T454 678Q454 652 437 635T394 618Q368 618 351 635Z" />
<glyph unicode="&#xe5;" glyph-name="aring" horiz-adv-x="607" d="M404 540T466 484T529 313V0H411V65Q388 30 346 12T243 -7Q183 -7 138 13T69 70T44 153Q44 225 97 268T266 312H404V320Q404 376 371 406T271 436Q226 436 183 422T109 383L60 474Q102 506 161
523T286 540Q404 540 466 484ZM316 84T352 105T404 167V229H275Q167 229 167 158Q167 124 194 104T269 84Q316 84 352 105ZM247 593T214 626T180 707Q180 755 213 789T296 823Q346 823 379 789T413 707Q413 659 380 626T296 593Q247 593 214 626ZM324 644T342 662T360
707Q360 735 342 753T296 772Q269 772 251 754T233 707Q233 680 251 662T296 644Q324 644 342 662Z" />
<glyph unicode="&#xe6;" glyph-name="ae" horiz-adv-x="993" d="M955 246T952 229H531Q541 169 587 134T704 99Q790 99 849 157L917 80Q879 37 825 15T701 -7Q628 -7 569 17T468 91Q436 39 381 16T260 -7Q160 -7 102 38T44 158Q44 226 98 268T266 311H404V320Q404
376 371 406T272 436Q226 436 183 422T109 383L60 474Q102 506 161 523T285 540Q426 540 484 458Q520 497 571 518T683 540Q760 540 822 506T919 410T955 269Q955 246 952 229ZM626 440T583 406T530 311H832Q824 372 781 406T682 440Q626 440 583 406ZM333 84T368
116T404 201V229H275Q167 229 167 160Q167 124 194 104T271 84Q333 84 368 116Z" />
<glyph unicode="&#xe7;" glyph-name="ccedilla" horiz-adv-x="581" d="M244 -7T178 28T75 125T38 267Q38 346 75 408T177 505T327 540Q406 540 465 508T555 416L459 360Q436 397 402 415T326 434Q256 434 210 389T164 267Q164 191 209 146T326 100Q367 100 401
118T459 174L555 118Q524 58 465 26T327 -7Q244 -7 178 28ZM221 -228T183 -207L206 -148Q237 -164 274 -164Q327 -164 327 -128Q327 -113 314 -104T274 -95H243L270 7H338L324 -49Q367 -54 389 -76T411 -133Q411 -176 374 -202T275 -228Q221 -228 183 -207Z" />
<glyph unicode="&#xe8;" glyph-name="egrave" horiz-adv-x="622" d="M584 251T582 227H163Q174 168 220 134T336 99Q424 99 481 157L548 80Q512 37 457 15T333 -7Q245 -7 178 28T75 125T38 267Q38 345 73 407T172 505T314 540Q392 540 453 506T549 409T584 264Q584
251 582 227ZM254 440T213 405T162 310H465Q457 368 416 404T314 440Q254 440 213 405ZM113 744H260L395 607H287L113 744Z" />
<glyph unicode="&#xe9;" glyph-name="eacute" horiz-adv-x="622" d="M584 251T582 227H163Q174 168 220 134T336 99Q424 99 481 157L548 80Q512 37 457 15T333 -7Q245 -7 178 28T75 125T38 267Q38 345 73 407T172 505T314 540Q392 540 453 506T549 409T584 264Q584
251 582 227ZM254 440T213 405T162 310H465Q457 368 416 404T314 440Q254 440 213 405ZM362 744H509L335 607H227L362 744Z" />
<glyph unicode="&#xea;" glyph-name="ecircumflex" horiz-adv-x="622" d="M584 251T582 227H163Q174 168 220 134T336 99Q424 99 481 157L548 80Q512 37 457 15T333 -7Q245 -7 178 28T75 125T38 267Q38 345 73 407T172 505T314 540Q392 540 453 506T549 409T584
264Q584 251 582 227ZM254 440T213 405T162 310H465Q457 368 416 404T314 440Q254 440 213 405ZM399 607L311 681L223 607H120L254 744H368L502 607H399Z" />
<glyph unicode="&#xeb;" glyph-name="edieresis" horiz-adv-x="622" d="M584 251T582 227H163Q174 168 220 134T336 99Q424 99 481 157L548 80Q512 37 457 15T333 -7Q245 -7 178 28T75 125T38 267Q38 345 73 407T172 505T314 540Q392 540 453 506T549 409T584
264Q584 251 582 227ZM254 440T213 405T162 310H465Q457 368 416 404T314 440Q254 440 213 405ZM188 618T171 635T154 678Q154 705 171 722T214 739Q240 739 257 722T274 678Q274 652 257 635T214 618Q188 618 171 635ZM382 618T365 635T348 678Q348 705 365 722T408
739Q434 739 451 722T468 678Q468 652 451 635T408 618Q382 618 365 635Z" />
<glyph unicode="&#xec;" glyph-name="igrave" horiz-adv-x="289" d="M82 534H207V0H82V534ZM-53 744H94L229 607H121L-53 744Z" />
<glyph unicode="&#xed;" glyph-name="iacute" horiz-adv-x="289" d="M82 534H207V0H82V534ZM196 744H343L169 607H61L196 744Z" />
<glyph unicode="&#xee;" glyph-name="icircumflex" horiz-adv-x="289" d="M82 534H207V0H82V534ZM213 607L145 677L77 607H-21L89 744H201L311 607H213Z" />
<glyph unicode="&#xef;" glyph-name="idieresis" horiz-adv-x="289" d="M82 534H207V0H82V534ZM44 619T28 635T11 678Q11 704 27 721T69 738Q93 738 109 721T126 678Q126 653 110 636T69 619Q44 619 28 635ZM197 619T181 636T164 678Q164 704 180 721T222 738Q247
738 263 721T279 678Q279 652 263 636T222 619Q197 619 181 636Z" />
<glyph unicode="&#xf0;" glyph-name="eth" horiz-adv-x="648" d="M611 514T611 343Q611 234 574 155T466 33T298 -10Q224 -10 165 18T72 98T38 218Q38 285 71 336T163 415T293 443Q355 443 403 421T483 356V371Q483 504 415 572L154 469L124 543L327 623Q291 633
246 633Q170 633 105 610L86 712Q162 734 248 734Q374 734 463 676L552 711L581 637L528 616Q611 514 611 343ZM352 92T386 109T439 154T458 216Q458 270 417 305T311 341Q244 341 204 307T164 216Q164 160 203 126T307 92Q352 92 386 109Z" />
<glyph unicode="&#xf1;" glyph-name="ntilde" horiz-adv-x="685" d="M486 540T547 481T608 306V0H483V290Q483 360 450 395T356 431Q287 431 247 390T207 270V0H82V534H201V465Q232 502 279 521T385 540Q486 540 547 481ZM392 607T374 617T328 647Q312 660 302
666T281 673Q260 673 247 657T232 613H165Q166 674 195 710T273 747Q298 747 316 737T362 707Q378 694 388 688T409 681Q430 681 443 696T458 738H525Q523 679 494 643T417 607Q392 607 374 617Z" />
<glyph unicode="&#xf2;" glyph-name="ograve" horiz-adv-x="645" d="M241 -7T176 28T75 125T38 267Q38 346 74 408T176 505T322 540Q404 540 469 505T570 408T607 267Q607 188 571 126T469 28T322 -7Q241 -7 176 28ZM391 100T436 146T481 267Q481 342 436 388T322
434Q253 434 209 388T164 267Q164 192 208 146T322 100Q391 100 436 146ZM123 744H270L405 607H297L123 744Z" />
<glyph unicode="&#xf3;" glyph-name="oacute" horiz-adv-x="645" d="M241 -7T176 28T75 125T38 267Q38 346 74 408T176 505T322 540Q404 540 469 505T570 408T607 267Q607 188 571 126T469 28T322 -7Q241 -7 176 28ZM391 100T436 146T481 267Q481 342 436 388T322
434Q253 434 209 388T164 267Q164 192 208 146T322 100Q391 100 436 146ZM372 744H519L345 607H237L372 744Z" />
<glyph unicode="&#xf4;" glyph-name="ocircumflex" horiz-adv-x="645" d="M241 -7T176 28T75 125T38 267Q38 346 74 408T176 505T322 540Q404 540 469 505T570 408T607 267Q607 188 571 126T469 28T322 -7Q241 -7 176 28ZM391 100T436 146T481 267Q481 342 436
388T322 434Q253 434 209 388T164 267Q164 192 208 146T322 100Q391 100 436 146ZM409 607L321 681L233 607H130L264 744H378L512 607H409Z" />
<glyph unicode="&#xf5;" glyph-name="otilde" horiz-adv-x="645" d="M241 -7T176 28T75 125T38 267Q38 346 74 408T176 505T322 540Q404 540 469 505T570 408T607 267Q607 188 571 126T469 28T322 -7Q241 -7 176 28ZM391 100T436 146T481 267Q481 342 436 388T322
434Q253 434 209 388T164 267Q164 192 208 146T322 100Q391 100 436 146ZM368 607T350 617T304 647Q288 660 278 666T257 673Q236 673 223 657T208 613H141Q142 674 171 710T249 747Q274 747 292 737T338 707Q354 694 364 688T385 681Q406 681 419 696T434 738H501Q499
679 470 643T393 607Q368 607 350 617Z" />
<glyph unicode="&#xf6;" glyph-name="odieresis" horiz-adv-x="645" d="M241 -7T176 28T75 125T38 267Q38 346 74 408T176 505T322 540Q404 540 469 505T570 408T607 267Q607 188 571 126T469 28T322 -7Q241 -7 176 28ZM391 100T436 146T481 267Q481 342 436 388T322
434Q253 434 209 388T164 267Q164 192 208 146T322 100Q391 100 436 146ZM198 618T181 635T164 678Q164 705 181 722T224 739Q250 739 267 722T284 678Q284 652 267 635T224 618Q198 618 181 635ZM392 618T375 635T358 678Q358 705 375 722T418 739Q444 739 461
722T478 678Q478 652 461 635T418 618Q392 618 375 635Z" />
<glyph unicode="&#xf7;" glyph-name="divide" horiz-adv-x="590" d="M266 481T246 501T226 553Q226 584 246 604T295 624Q325 624 345 604T365 553Q365 522 345 502T295 481Q266 481 246 501ZM65 400H526V300H65V400ZM266 76T246 96T226 148Q226 179 246 199T295
219Q325 219 345 199T365 148Q365 117 345 97T295 76Q266 76 246 96Z" />
<glyph unicode="&#xf8;" glyph-name="oslash" horiz-adv-x="645" d="M241 -7T176 28T75 125T38 267Q38 346 74 408T176 505T322 540Q404 540 469 505T570 408T607 267Q607 188 571 126T469 28T322 -7Q241 -7 176 28ZM391 100T436 146T481 267Q481 342 436 388T322
434Q253 434 209 388T164 267Q164 192 208 146T322 100Q391 100 436 146ZM506 601H576L136 -71H66L506 601Z" />
<glyph unicode="&#xf9;" glyph-name="ugrave" horiz-adv-x="681" d="M599 534V0H480V68Q450 32 405 13T308 -7Q201 -7 140 52T78 229V534H203V246Q203 174 235 139T328 103Q395 103 434 144T474 264V534H599ZM140 744H287L422 607H314L140 744Z" />
<glyph unicode="&#xfa;" glyph-name="uacute" horiz-adv-x="681" d="M599 534V0H480V68Q450 32 405 13T308 -7Q201 -7 140 52T78 229V534H203V246Q203 174 235 139T328 103Q395 103 434 144T474 264V534H599ZM389 744H536L362 607H254L389 744Z" />
<glyph unicode="&#xfb;" glyph-name="ucircumflex" horiz-adv-x="681" d="M599 534V0H480V68Q450 32 405 13T308 -7Q201 -7 140 52T78 229V534H203V246Q203 174 235 139T328 103Q395 103 434 144T474 264V534H599ZM426 607L338 681L250 607H147L281 744H395L529 607H426Z" />
<glyph unicode="&#xfc;" glyph-name="udieresis" horiz-adv-x="681" d="M599 534V0H480V68Q450 32 405 13T308 -7Q201 -7 140 52T78 229V534H203V246Q203 174 235 139T328 103Q395 103 434 144T474 264V534H599ZM215 618T198 635T181 678Q181 705 198 722T241
739Q267 739 284 722T301 678Q301 652 284 635T241 618Q215 618 198 635ZM409 618T392 635T375 678Q375 705 392 722T435 739Q461 739 478 722T495 678Q495 652 478 635T435 618Q409 618 392 635Z" />
<glyph unicode="&#xfd;" glyph-name="yacute" horiz-adv-x="578" d="M582 534L332 -43Q297 -130 247 -165T126 -201Q86 -201 47 -188T-17 -152L33 -60Q51 -77 75 -87T125 -97Q158 -97 179 -80T219 -23L228 -2L-5 534H125L293 139L462 534H582ZM327 744H474L300
607H192L327 744Z" />
<glyph unicode="&#xfe;" glyph-name="thorn" horiz-adv-x="686" d="M456 540T517 506T614 410T649 267Q649 186 614 124T518 27T378 -7Q270 -7 207 65V-194H82V742H207V471Q270 540 378 540Q456 540 517 506ZM433 100T477 146T522 267Q522 342 478 388T364 434Q319
434 283 414T226 355T205 267Q205 217 226 179T283 121T364 100Q433 100 477 146Z" />
<glyph unicode="&#xff;" glyph-name="ydieresis" horiz-adv-x="578" d="M582 534L332 -43Q297 -130 247 -165T126 -201Q86 -201 47 -188T-17 -152L33 -60Q51 -77 75 -87T125 -97Q158 -97 179 -80T219 -23L228 -2L-5 534H125L293 139L462 534H582ZM153 618T136
635T119 678Q119 705 136 722T179 739Q205 739 222 722T239 678Q239 652 222 635T179 618Q153 618 136 635ZM347 618T330 635T313 678Q313 705 330 722T373 739Q399 739 416 722T433 678Q433 652 416 635T373 618Q347 618 330 635Z" />
<glyph unicode="&#x2013;" glyph-name="endash" horiz-adv-x="500" d="M0 319H500V237H0V319Z" />
<glyph unicode="&#x2014;" glyph-name="emdash" horiz-adv-x="1000" d="M0 319H1000V237H0V319Z" />
<glyph unicode="&#x2018;" glyph-name="quoteleft" horiz-adv-x="244" d="M177 580T189 561T202 514Q202 478 179 455T122 432Q86 432 63 455T40 514Q40 532 44 549T62 600L115 742H195L155 589Q177 580 189 561Z" />
<glyph unicode="&#x2019;" glyph-name="quoteright" horiz-adv-x="244" d="M158 749T181 726T204 667Q204 649 200 632T182 581L130 439H49L89 593Q67 601 55 620T42 667Q42 703 65 726T123 749Q158 749 181 726Z" />
<glyph unicode="&#x201a;" glyph-name="quotesinglbase" horiz-adv-x="244" d="M158 159T181 136T204 76Q204 60 200 43T181 -10L130 -151H49L89 2Q67 11 55 30T42 76Q42 113 65 136T123 159Q158 159 181 136Z" />
<glyph unicode="&#x201c;" glyph-name="quotedblleft" horiz-adv-x="456" d="M177 580T189 561T202 514Q202 478 179 455T122 432Q86 432 63 455T40 514Q40 532 44 549T62 600L115 742H195L155 589Q177 580 189 561ZM389 580T401 561T414 514Q414 478 391 455T334
432Q298 432 275 455T252 514Q252 532 256 549T274 600L327 742H407L367 589Q389 580 401 561Z" />
<glyph unicode="&#x201d;" glyph-name="quotedblright" horiz-adv-x="456" d="M158 749T181 726T204 667Q204 649 200 632T182 581L130 439H49L89 593Q67 601 55 620T42 667Q42 703 65 726T123 749Q158 749 181 726ZM370 749T393 726T416 667Q416 649 412 632T394
581L342 439H261L301 593Q279 601 267 620T254 667Q254 703 277 726T335 749Q370 749 393 726Z" />
<glyph unicode="&#x201e;" glyph-name="quotedblbase" horiz-adv-x="456" d="M158 159T181 136T204 76Q204 60 200 43T181 -10L130 -151H49L89 2Q67 11 55 30T42 76Q42 113 65 136T123 159Q158 159 181 136ZM370 159T393 136T416 76Q416 60 412 43T393 -10L342
-151H261L301 2Q279 11 267 30T254 76Q254 113 277 136T335 159Q370 159 393 136Z" />
<glyph unicode="&#x2022;" glyph-name="bullet" horiz-adv-x="335" d="M123 169T92 200T60 278Q60 324 91 355T167 386Q211 386 243 355T275 278Q275 231 243 200T167 169Q123 169 92 200Z" />
<glyph unicode="&#x2039;" glyph-name="guilsinglleft" horiz-adv-x="327" d="M42 267L184 461H297L158 267L297 74H184L42 267Z" />
<glyph unicode="&#x203a;" glyph-name="guilsinglright" horiz-adv-x="327" d="M30 74L169 267L30 461H143L285 267L143 74H30Z" />
</font>
</defs>
</svg>
